ЗАЗ-968 - Лучший Внедорожник! (ВИДЕО)ЗАЗ-968 — Лучший Внедорожник!

4×4 Покатушки на полноприводных авто и "не очень".

Место действия:

  Полигон для демонстрации возможностей внедорожников Land Rover и VW Touareg.


Автомобили марок:

УАЗ (Патриот)

Toyota (хз — вроде TLC)

Hummer (Маленький какой-то)

ВАЗ (Нива коротышка)

Тагаз (Тагер и собрат корейский Off-Road Partner)

ЗАЗ-968 (Совковая "консервная" банка)

ЗАЗ-968 - Лучший Внедорожник! (ВИДЕО)

ЗАЗ-968 - Лучший Внедорожник! (ВИДЕО)

ЗАЗ-968 - Лучший Внедорожник! (ВИДЕО)

ЗАЗ-968 - Лучший Внедорожник! (ВИДЕО)

ЗАЗ-968 - Лучший Внедорожник! (ВИДЕО)

ЗАЗ-968 - Лучший Внедорожник! (ВИДЕО)

ЗАЗ-968 - Лучший Внедорожник! (ВИДЕО)

Итог:

Именитые собратья "сели в лужу" в сухую погоду. ЗАЗ-968 преодолел все препятсвия на полигоне для демонстрации  возможностей внедорожников Land Rover и VW Touareg. Качаем смотрим видео, делимся ссылкой на страничку с друзьями.

ЗАЗ-968 - Лучший Внедорожник! (ВИДЕО)

Имя файла: Kakov_dolgen_bit_vnedoroznik.avi
Формат файла: .avi (AVI)
Размер файла: 27.65 MB
Длительность: 6mn 40s
Навигация по главам: Нет
Bitrate (все потоки): 580 Kbps
Тип потока: Видео
Длительность: 00:06:40
Кодек: AVC
Кодек/Профиль: Baseline@L1.3
Кодек/ID: X264
Размеры изображения: 480 x 352 (4:3)
Частота кадров: 29.917 fps
Размер потока: 14.8 MiB (54%)
Битрейт: 310 Kbps
Цветовое пространство: YUV
Тип развёртки: Progressive
Bits/(Pixel*Frame): 0.061
Глубина пикселя: 8 bits
Тип потока: Звук #1
Длительность: 00:06:39.927
Кодек: MPEG Audio
Кодек/ID: 55
Частота дискретизации: 44.1 KHz
Каналы: 2 channels
Битрейт: 256 Kbps
Тип битрейта: Constant
Размер потока: 12.2 MiB (44%)

Скачать ЗАЗ-968 — Лучший Внедорожник!: http://depositfiles.com/files/5x4rlyibq

GOOGLE.RU
Архивы